[MoviesJug.Net] Arthur And The Invisibles (2006) 720p BluRay [Dua...

seeders: 5
leechers: 4
updated:
Added by Moviesjug in Other


[ LIMITED VPN OFFER ]
strongly advises you to use NordVPN while downloading torrents.
NordVPN is the safest VPN on the market, and the fastest VPN as well.
No IP Log is saved using NordVPN, avoid other VPN providers and choose the safest one.
Click here and buy NordVPN it's on rebates today!
We were able to verify your IP: 176.99.4.11, country: Russian Federation.
If we can do that, others can too, protect your privacy with NordVPN.
is trying the best for you!
[ LIMITED VPN OFFER ]


Description

 


 


VISIT OUR SITE ==}http://moviesjug.net/ 




SCREENSHOTS  


 



 
MEDIA INFO  


General
Arthur And The Invisibles (2006) [MoviesJug.Net] 720p BluRay [Dual Audio] [Hindi ORG - English] x264 Eng Subs.mkv
Format : Matroska
Format version : Version 4 / Version 2
File size : 967 MiB
Duration : 1 h 43 min
Overall bit rate : 1 301 kb/s
Movie name  : Downloaded From [MoviesJug.Net]

Video
ID : 1
Format : AVC
Format/Info : Advanced Video Codec
Format profile : [email protected] 
Format settings : CABAC / 5 Ref Frames
Format settings, CABAC : Yes
Format settings, RefFrames : 5 frames
Codec ID : V_MPEG4/ISO/AVC
Duration : 1 h 43 min
Bit rate : 985 kb/s
Width : 1 280 pixels
Height : 548 pixels
Display aspect ratio : 2.35:1
Frame rate mode : Constant
Frame rate : 23.976 (24000/1001) FPS
Color space : YUV
Chroma subsampling : 4:2:0
Bit depth : 8 bits
Scan type : Progressive
Bits/(Pixel*Frame) : 0.059
Stream size : 732 MiB (76%)
Title : Downloaded From [MoviesJug.Net]
Writing library : x264 core 148 r2721 72d53ab
Language : English
Default : Yes
Forced : No

Audio #1
ID : 2
Format : AC-3
Format/Info : Audio Coding 3
Codec ID : A_AC3
Duration : 1 h 43 min
Bit rate mode : Constant
Bit rate : 224 kb/s
Channel(s) : 2 channels
Channel positions : Front: L R
Sampling rate : 48.0 kHz
Frame rate : 31.250 FPS (1536 SPF)
Bit depth : 16 bits
Compression mode : Lossy
Stream size : 166 MiB (17%)
Title : Downloaded From [MoviesJug.Net]
Language : Hindi
Service kind : Complete Main
Default : Yes

Sharing Widget


Download torrent
Size: 966.6 MB
seeders:5
leechers:4
[MoviesJug.Net] Arthur And The Invisibles (2006) 720p BluRay [Dua... - (1013553561 Bytes)



To share this torrent use the code below and insert it into comments, status messages, forum posts or your signature.

Torrent: [MoviesJug.Net] Arthur And The Invisibles (2006) 720p BluRay [Dua...

Trackers

tracker name
udp://tracker.openbittorrent.com:80/announce
udp://tracker.opentrackr.org:1337/announce
UDP://TRACKER.LEECHERS-PARADISE.ORG:6969/ANNOUNCE
UDP://TRACKER.COPPERSURFER.TK:6969/ANNOUNCE
UDP://TRACKER.OPENTRACKR.ORG:1337/ANNOUNCE
UDP://TRACKER.ZER0DAY.TO:1337/ANNOUNCE
UDP://EDDIE4.NL:6969/ANNOUNCE
UDP://TRACKER.LEECHERS-PARADISE.ORG:6969/ANNOUNCE
UDP://TRACKER.COPPERSURFER.TK:6969/ANNOUNCE
UDP://TRACKER.OPENTRACKR.ORG:1337/ANNOUNCE
UDP://TRACKER.ZER0DAY.TO:1337/ANNOUNCE
UDP://EDDIE4.NL:6969/ANNOUNCE
udp://tracker.openbittorrent.com:80/announce
udp://tracker.opentrackr.org:1337/announce
udp://tracker.zer0day.to:1337/announce
udp://tracker.leechers-paradise.org:6969/announce
udp://coppersurfer.tk:6969/announce
ĀµTorrent compatible trackers list

Locations

name
KickassTorrents
Torrent hash: 0E3A714A02FE078CA0C45B5395105C94B575588F

[ LIMITED VPN OFFER ]
strongly advises you to use NordVPN while downloading torrents.
NordVPN is the safest VPN on the market, and the fastest VPN as well.
No IP Log is saved using NordVPN, avoid other VPN providers and choose the safest one.
Click here and buy NordVPN it's on rebates today!
We were able to verify your IP: 176.99.4.11, country: Russian Federation.
If we can do that, others can too, protect your privacy with NordVPN.
is trying the best for you!
[ LIMITED VPN OFFER ]

All Comments

*comments box temporarily disabled*
Report a bug